конвертирование .mod во что-нибудь из .avi, .mpeg, ...

Не могу найти Linux-конвертер для преобразования файлов с расширением .mod во что-нибудь из .avi, .mpeg, ... с целью размещения на сайте.

Изображение пользователя Школяр.

или еще

Изображение пользователя Школяр.

Например

А был ли младенец?

Попробовал конвертировать:
[valeriy@go ~]$ mod2avi ~/Desktop/luna.MOD
mod2avi v0.5b May 24th/2008
[] Вск Мар 20 20:51:41 YEKT 2011
[] Frame rate: 29.97
[] Frame size: 720x480
[] Video bitrate: 4500k
[] Audio bitrate: 192k
[] Audio frequency: 48000
[] Video codec: xvid
[] Audio codec: mp3
[] Stereo: yes
[] Converting /home/valeriy/Desktop/luna.MOD...
FFmpeg version 0.6-alt0.svn24911.M50P.1, Copyright (c) 2000-2010 the FFmpeg developers
built on Nov 19 2010 13:24:46 with gcc 4.4.1 20090725 (ALT Linux 4.4.1-alt3)
configuration: --prefix=/usr --libdir=/usr/lib --shlibdir=/usr/lib --mandir=/usr/share/man --enable-gpl --enable-postproc --enable-pthreads --enable-shared --enable-static --enable-libvorbis --disable-libfaac --enable-libxvid --enable-libx264 --enable-libmp3lame --enable-libgsm --enable-libdc1394 --enable-zlib --disable-mpegaudio-hp --enable-mmx --disable-iwmmxt --disable-memalign-hack --enable-ffserver --enable-ffplay --disable-libdirac --enable-libschroedinger --enable-avfilter --disable-avisynth --disable-libnut --enable-libtheora --enable-version3 --enable-libopencore-amrwb --enable-libopencore-amrnb --enable-hardcoded-tables --enable-runtime-cpudetect --enable-x11grab --enable-bzlib --disable-ffprobe --enable-libvpx --enable-libv4l2 --disable-nonfree --enable-librtmp --disable-debug --extra-cflags='-pipe -Wall -O2 -march=i586 -mtune=i686 -frename-registers -DRUNTIME_CPUDETECT' --extra-version=alt0.svn24911.M50P.1
All the errors with this package you should report
to ALT Linux bugzilla (https://bugzilla.altlinux.org)!
libavutil 50.24. 0 / 50.24. 0
libavcore 0. 6. 0 / 0. 6. 0
libavcodec 52.86. 1 / 52.86. 1
libavformat 52.78. 3 / 52.78. 3
libavdevice 52. 2. 1 / 52. 2. 1
libavfilter 1.38. 1 / 1.38. 1
libswscale 0.11. 0 / 0.11. 0
libpostproc 51. 2. 0 / 51. 2. 0
[mpeg @ 0x807b470] max_analyze_duration reached
Input #0, mpeg, from '/home/valeriy/Desktop/luna.MOD':
Duration: 00:01:38.84, start: 0.262222, bitrate: 4389 kb/s
Stream #0.0[0x1e0]: Video: mpeg2video, yuv420p, 704x576 [PAR 12:11 DAR 4:3], 9510 kb/s, 25 fps, 25 tbr, 90k tbn, 50 tbc
Stream #0.1[0x80]: Audio: ac3, 48000 Hz, stereo, s16, 256 kb/s

Unknown encoder 'xvid'

[] Done converting /home/valeriy/Desktop/luna.MOD!
[] Number of files converted: 1

Чем завершилось конвертирование? Если удачно, то где лежит готовый файл?

Файл должен быть в той же папке

По видимому у вас не установлен libxvid хотя это странно.:(

Попробуйте отредактировать файл mod2avi и в строчке

vcodec='xvid'

заменить xvid на mpeg4

ну или установить пакеты в которых есть упоминание про xvid
Может поможет?

Спасибо за наводку,

но пока вышел из положения по второй ссылке Школяра, которая была им приведена дополнительно. Как вариант похуже, в vlc-player(установленном в системе по умолчанию) присутствует функция Конвертировать, но не в .avi. Поэтому по качеству конвертированный файл значительно уступает.

Изображение пользователя Школяр.

Гугл говорит нам

что это стандартная ошибка для ffmpeg, который вызывается из mod2avi - отсутствуют или библиотеки кодеков (значит надо их доустановить), или они в данной версии иначе называются (то есть например, надо написать vcodec='libxvid', если там написано xvid)

Абсолютно согласен

надо написать vcodec='libxvid', если там написано xvid

Чтобы конвертировать с использованием mpeg надо прописать не mpeg4, а mjpeg.
Для использования x264 надо прописать libx264.
И так далее! даже интересно стало :).

А нельзя было воспользоваться Avidemux Video Editor? Вроде как по умолчанию ставится.:)

Просмотрел

Просмотрел Avidemux Video Editor. Конвертировать в .avi он может в версии для Windows, для Linux я не увидел этой возможности.

Ну как это?

Открываете файл .mod, выставляете настройки видео и звука. Ну и сохраняете видео.
Или файл не открывается?

В настройке

В настройке видео не присутствует в явном виде возможность выбора .avi. У меня установлен ALT Linux 5.02 Gnome
Виноват, наверно выбор выходного формата .avi происходит в выпадающем меню с меткой "Контейнер"?

В настройке видео

вы выбираете кодек для перекодирования видео, в настройке аудио - кодек для перекодирования звука.
Контейнер avi означает что видео файл будет представлять собой файл avi.

При сохранении видео через меню

Файл -> Cохранить -> Cохранить видео

вводите имя файла с расширением, т.е. например myvideo.avi

Спасибо, всё,

Спасибо, всё, оказывается, под рукой и искать ничего не надо. А в отношении себя скажу: "Трудно быть валенком!" :)

Изображение пользователя Школяр.

каждый

из тех, кто дает сейчас советы, когда-то начинал точно так же. СПО тем и хорошо, что это не только программы, но и люди, которые готовы помогать.

Сразу себя вспомнил

Как не знал как устанавливать программы, что программы (скрипты) можно редактировать и появятся новые возможности. Как ругался когда устанавливал Школьный Мастер 4.0.
Сейчас я считаю себя уверенным пользователем и думаю что в СПО ещё очень много неизвестного и интересного. :)

Занесу в копилку

Видеокамерой недавно обзавелся и редактировать видео еще не приходилось, пока нахожусь в стадии освоения.

Ещё

Наверное придётся занести что скорее всего в строчке

acodec='mp3' необходимо заменить mp3 на libmp3lame.:).